艾诺v6000hdv

IMAG0020

最后还是入了艾诺v6000hdv。3天用下来总体感觉良好,新番的一般rmvb可以完美流畅的播放,但是在播放战斗妖精雪风的mkv的时候有略微的卡帧,而且不支持mkv内挂的字幕。

MKV的文件信息:

Video
ID                               : 1
Format                           : MPEG-4 Visual
Format profile                   : Simple@L3
Format settings, BVOP            : Yes
Format settings, QPel            : No
Format settings, GMC             : No warppoints
Format settings, Matrix          : Default (H.263)
Codec ID                         : XVID
Codec ID/Hint                    : XviD
Duration                         : 46mn 46s
Bit rate                         : 1 235 Kbps
Width                            : 720 pixels
Height                           : 480 pixels
Display aspect ratio             : 1.500
Frame rate                       : 23.976 fps
Standard                         : NTSC
Resolution                       : 24 bits
Colorimetry                      : 4:2:0
Scan type                        : Progressive
Bits/(Pixel*Frame)               : 0.149
Stream size                      : 413 MiB (72%)
Writing library                  : XviD 1.1.0 Beta2 (UTC 2005-04-04)
Language                         : Japanese

Audio
ID                               : 2
Format                           : AC-3
Format/Info                      : Audio Coding 3
Codec ID                         : A_AC3
Duration                         : 46mn 48s
Bit rate mode                    : Constant
Bit rate                         : 448 Kbps
Channel(s)                       : 6 channels
Channel positions                : Front: L C R, Surround: L R, LFE
Sampling rate                    : 48.0 KHz
Stream size                      : 150 MiB (26%)
Language                         : Japanese

看起来码率接近2M,也算是v6000hdv的解码极限值了

之所以买这机器主要是因为高三能用电脑看片的时间实在太少了(虽然说以前也不算多),自己也懒得压mp4用PSP看,手机的话虽然能播放rmvb,但也仅仅是“能放”的地步,avi的话不用2pass压效果实在太差,但是2pass又太花时间,而且考虑到新番主要是rmvb,补旧番的话就算是mkv码率也不会太高,v6000hdv也足够了,所以就以总共505大洋的价格买下了。种种看来还要买条OTG线啊。

 

PS:买了这机器后我就一夜回到解放前了,周日的同人会完全不知道该怎么办了……

此条目发表在碎碎念分类目录,贴了, 标签。将固定链接加入收藏夹。

艾诺v6000hdv》有 6 条评论

  1. 戏言遣者说:

    其实我觉得你蛮闲的=_|||

  2. zwxclear说:

    @戏言遣者
    从某种程度上来说是很闲,但是能用电脑的时间不算多

  3. lucifer0607说:

    这机器好废……
    还是我家T11RK好用(挺胸 虽然不能解WMV系列是大问题

  4. lucifer0607说:

    OTL所以说了妹的为什么我会有头像!还和渣理BLOG上的一样!

  5. zwxclear说:

    @lucifer0607
    诚哥你注册过gravatar了吧,填了email以后就会显示gravatar使用的头像了

  6. lucifer0607说:

    @zwxclear
    哦哦多谢wwwwww
    改头像去

发表评论

电子邮件地址不会被公开。 必填项已用*标注

Spam Protection by WP-SpamFree